Вернуться   Форум певицы Светланы Разиной > Главная категория > Основной форум

Закрытая тема
 
Опции темы Опции просмотра
  #11  
Старый 28.05.2010, 23:14
Наталья
Гость
 
Сообщений: n/a
По умолчанию

Супер!!!!!!!!!!!!!
  #12  
Старый 28.05.2010, 23:15
Аватар для Ang
Ang Ang вне форума
Новичок
 
Регистрация: 13.04.2010
Адрес: 59° 53'N и 30° 15'E
Сообщений: 0
По умолчанию

ООООО)) Ну, наконец-то!!!!
Кул!!! Как говорится, респект и уважуха :D:D:D
  #13  
Старый 29.05.2010, 06:40
Mischa
Гость
 
Сообщений: n/a
По умолчанию

Цитата:
Сообщение от Юрий Посмотреть сообщение
На ютубе нашел новый обалденный клип на песенку малоизвестного (пока;)) проекта S'tatu'S смотрим здесь:
http://www.youtube.com/watch?v=P07NGBbAGmo... вам это ни кого не напоминает???;)
Ждем ваших комментов))))
У кого ты спрашиваешь? Они такую музыку даже и не слушали)))))))
Почти один в один Pink "U and ur hand"... Аранжировщик конешна постарался, но вряд ли что скроется от моего уха...:D
Я помню, что Светлана всегда хотела петь песни именно в этом формате... Не плохо! Просто меня пока не цепанула, и всё же она была права, что мне не понравится... Ну с первого раза мне не драйв, я слова ещё не внимательно послушал... И всё же у Пинки клип мне нравится, значит не всё потеряно)))
  #14  
Старый 29.05.2010, 09:53
Аватар для Армилла
Армилла Армилла вне форума
Новичок
 
Регистрация: 13.04.2010
Адрес: Пенза - 58RUS - город на Суре...
Сообщений: 0
Отправить сообщение для Армилла с помощью ICQ Отправить сообщение для Армилла с помощью Skype™
По умолчанию

Цитата:
Сообщение от Ang Посмотреть сообщение
Напоминаю, в контакте - флешмоб!!!!
Света с рупором на аву, Музыка с танцами в СТАТУС )))
Привет, близнец :D

На всяк случай, тем, кто не в теме)))

На аватару:


В статус: "Музыка кончилась, начались танцы!"

:cool:
__________________
"КОМБИНАЦИЯ" forever!!!
  #15  
Старый 29.05.2010, 16:15
Аватар для @lexx
@lexx @lexx вне форума
Местный
 
Регистрация: 13.04.2010
Адрес: Граница Европы-Азии
Сообщений: 740
По умолчанию

Цитата:
Сообщение от Ang Посмотреть сообщение
Напоминаю, в контакте - флешмоб!!!!
Света с рупором на аву, Музыка с танцами в СТАТУС )))
А ежели меня нет вконтакте?:eek: На МП3ФОРУМЕ поставил...
Терпеть ненавижу социальные сети, в однокласниках только по первости зарегился, одним из первых в классе... А потом ВСЁ!!!

И вообще, мне вот этот кадр больше понравился:
__________________
Клоун-правдолюб Самоделкин

Последний раз редактировалось @lexx; 29.05.2010 в 16:38.
  #16  
Старый 30.05.2010, 15:40
Олег Олег вне форума
Супер-модератор
 
Регистрация: 12.04.2010
Адрес: Город над вольной Невой
Сообщений: 1,270
По умолчанию

Ну тогда,для тех кто не может ждать студийного оригинала(надеюсь его мы когда нибудь увидем),но хочет смотреть с dvd на телевизоре...vob файл сделаный из ролика...уж что получилось...на скорую руку...

General
Complete name S'tatu'S - Music & Dances (Музыка-Танцы).VOB
Format : MPEG-PS
File size : 183 MiB
Duration : 3mn 19s
Overall bit rate : 7 687 Kbps

Video
ID : 224 (0xE0)
Format : MPEG Video
Format version : Version 2
Format profile : Main@Main
Format settings, Matrix : Default
Duration : 3mn 19s
Bit rate mode : Variable
Bit rate : 5 846 Kbps
Nominal bit rate : 9 800 Kbps
Width : 720 pixels
Height : 576 pixels
Display aspect ratio : 4/3
Frame rate : 25.000 fps
Standard : PAL
Colorimetry : 4:2:0
Scan type : Interlaced
Scan order : Top Field First
Bits/(Pixel*Frame) : 0.564
Stream size : 139 MiB (76%)

Audio
ID : 160 (0xA0)
Format : PCM
Format settings, Endianness : Big
Format settings, Sign : Signed
Duration : 3mn 19s
Bit rate mode : Constant
Bit rate : 1 536 Kbps
Channel(s) : 2 channels
Channel positions : Front: L R
Sampling rate : 48.0 KHz
Stream size : 36.5 MiB (20%)

Menu
Format : DVD-Video
http://www.megaupload.com/?d=3EBLGA9H
__________________
"Здесь музыка кончилась,начались танцы..." (c)

Последний раз редактировалось Олег; 30.05.2010 в 16:25.
  #17  
Старый 30.05.2010, 16:37
Аватар для Svetlana Razina
Svetlana Razina Svetlana Razina вне форума
Модератор
 
Регистрация: 13.04.2010
Сообщений: 1,719
По умолчанию

Цитата:
Сообщение от slaviG Посмотреть сообщение
Свет, посмотрел ща "Давай поженимся"...
Ну..млин все очень достойно!!! (даже третий жених))))
А имена подружек невесты специально перетусовали???
Не специально..просто перепутали.....
__________________
Хозяйка:p
  #18  
Старый 30.05.2010, 16:44
Аватар для Svetlana Razina
Svetlana Razina Svetlana Razina вне форума
Модератор
 
Регистрация: 13.04.2010
Сообщений: 1,719
По умолчанию

Ребят, расшифровки не будет...зачем лишние проблемы)))

Что касается голосов - все там есть..2 килогерца ее вокала были необходимы...далее..никто не стремился сделать супер видео ряд...в том весь и Смысл - песне вообще не нужны артисты..нужна просто хроника..

здесь заложен огромный сакральный смысл в каждой строчке и равняться на тех самых модных однодневок вовсе не входит в планы.:D

Упаси Боже с ними конкурировать!
Музыка КОНЧИЛАСЬ! начались пляски...действия..вертикали Реставраций..режи...ма
__________________
Хозяйка:p
  #19  
Старый 30.05.2010, 16:46
Аватар для Svetlana Razina
Svetlana Razina Svetlana Razina вне форума
Модератор
 
Регистрация: 13.04.2010
Сообщений: 1,719
По умолчанию

Спасибо самым умным и сообразительным...тем, кто угадал - Кто "Она"!
если такие вообще есть))))))
__________________
Хозяйка:p
  #20  
Старый 31.05.2010, 00:20
Аватар для Silvergold
Silvergold Silvergold вне форума
Местный
 
Регистрация: 28.05.2010
Сообщений: 47
По умолчанию

Был на каком то форумеЁ по!моему у Славика, там на логотипе ( на шапке ), фотки Светланы с фотосесий. Кто может поделиться, поделитесь плиз.
И ещё одно, я много чего пропустил или не имел возможности вовремя скачать, ссылки все удалены, потому что этот форум имеет свойство обновляться. Что было из видео выложено, и что у кого есть? Особенно интересует всё, что было до 2003 года!
Закрытая тема

Теги
группа мираж, группа статус, группа фея, дискотека 80, светлана разина

Опции темы
Опции просмотра

Ваши права в разделе
Вы не можете создавать новые темы
Вы не можете отвечать в темах
Вы не можете прикреплять вложения
Вы не можете редактировать свои сообщения

BB коды Вкл.
Смайлы Вкл.
[IMG] код Вкл.
HTML код Выкл.
Быстрый переход


Часовой пояс GMT +3, время: 16:22.


vBulletin® Version 3.7.0 Beta 3.
Copyright ©2000 - 2018, Jelsoft Enterprises Ltd.
Перевод: zCarot